Encora Reprise - View Single Show

CAST:
Jemma Rix (Elphaba), Suzie Mathers (Glinda), Steve Danielsen (Fiyero), Simon Gallaher (The Wizard), Maggie Kirkpatrick (Madame Morrible), Emily Cascarino (Nessarose), Edward Grey (Boq), Glen Hogstrom (Doctor Dillamond)
NOTES:
Final performance of the tour
⠀⠀⠀⠀⠀⠀
MediaInfo
General Format : MPEG Audio File size : 98.0 MiB Duration : 1 h 25 min Overall bit rate mode : Constant Overall bit rate : 160 kb/s Album : Wicked (Australian Cast Recording) Track name : Wicked Act 1 - Final Show 28/06/15 Track name/Position : 5 Track name/Total : 6 Performer : Various Composer : Stephen Schwartz Genre : Musical Recorded date : 2015 Writing library : iTunes 12.0.1.26 Cover : Yes Cover MIME : image/png iTunPGAP : 0 Audio Format : MPEG Audio Format version : Version 1 Format profile : Layer 3 Duration : 1 h 25 min Bit rate mode : Constant Bit rate : 160 kb/s Channel(s) : 1 channel Sampling rate : 44.1 kHz Frame rate : 38.281 FPS (1152 SPF) Compression mode : Lossy Stream size : 97.8 MiB (100%) General Format : MPEG Audio File size : 75.8 MiB Duration : 1 h 6 min Overall bit rate mode : Constant Overall bit rate : 160 kb/s Album : Wicked (Australian Cast Recording) Track name : Wicked Act 2 - Final Show 28/06/15 Track name/Position : 6 Track name/Total : 6 Performer : Various Composer : Stephen Schwartz Genre : Musical Recorded date : 2015 Writing library : iTunes 12.0.1.26 Cover : Yes Cover MIME : image/png iTunPGAP : 0 Audio Format : MPEG Audio Format version : Version 1 Format profile : Layer 3 Duration : 1 h 6 min Bit rate mode : Constant Bit rate : 160 kb/s Channel(s) : 1 channel Sampling rate : 44.1 kHz Frame rate : 38.281 FPS (1152 SPF) Compression mode : Lossy Stream size : 75.5 MiB (100%)
⠀⠀⠀⠀⠀⠀