Encora Reprise - View Single Show

Newsies - Broadway
January 20, 2013 - cursetheflame
CAST:
Corey Cott (Jack Kelly), Ben Fankhauser (Davey Jacobs), Laurie Veldheer (u/s Katherine Plumber), Garett Hawe (u/s Crutchie), John Dossett (Joseph Pulitzer), LaVon Fisher-Wilson (Medda Larkin), Jake Lucas (Les Jacobs), Ryan Breslin (Race), Andy Richardson (Romeo), Brendon Stimson (Oscar Delancey), Michael Fatica (u/s Morris Delancey), Tommy Bracco (Spot Conlon), Ryan Steele (Specs), Evan Kasprzak (Elmer), Julian DeGuzman (u/s Albert), John E Brady (Wiesel/Mr. Jacobi/Mayor), Stuart Marland (Snyder), Kevin Carolan (Theodore Roosevelt), Iain Young (Henry), Jess LeProtto (Buttons), Jacob Guzman (Sniper/Scab), Mark Aldrich (Seitz), Nick Sullivan (Bunsen), Caitlyn Caughell (Hannah), David Guzman (Mush), Hogan Fulton (Darcy)
NOTES:
Ryan Steele's last performance
⠀⠀⠀⠀⠀⠀
MediaInfo
General Format : MPEG Audio File size : 63.5 MiB Duration : 1 h 8 min Overall bit rate mode : Constant Overall bit rate : 128 kb/s Album : Newsies, 01/20/13 Track name : Act One Track name/Position : 1 Performer : Broadway Cast Genre : My Bootlegs Recorded date : 2013 Writing library : LAME3.98r Cover : Yes Cover MIME : image/jpeg Comment : mastered by cursetheflame // Garett Hawe as Crutchie // Laurie Veldheer as Katherine // Ryan Steele's last performance as Specs Audio Format : MPEG Audio Format version : Version 1 Format profile : Layer 3 Format settings : Joint stereo / MS Stereo Duration : 1 h 8 min Bit rate mode : Constant Bit rate : 128 kb/s Channel(s) : 2 channels Sampling rate : 44.1 kHz Frame rate : 38.281 FPS (1152 SPF) Compression mode : Lossy Stream size : 63.1 MiB (99%) Writing library : LAME3.98r Encoding settings : -m j -V 4 -q 3 -lowpass 17 -b 128 General Format : MPEG Audio File size : 51.5 MiB Duration : 55 min 43 s Overall bit rate mode : Constant Overall bit rate : 128 kb/s Album : Newsies, 01/20/13 Track name : Act Two Track name/Position : 2 Performer : Broadway Cast Genre : My Bootlegs Recorded date : 2013 Writing library : LAME3.98r Cover : Yes Cover MIME : image/jpeg Comment : mastered by cursetheflame // Garett Hawe as Crutchie // Laurie Veldheer as Katherine // Ryan Steele's last performance as Specs Audio Format : MPEG Audio Format version : Version 1 Format profile : Layer 3 Format settings : Joint stereo / MS Stereo Duration : 55 min 43 s Bit rate mode : Constant Bit rate : 128 kb/s Channel(s) : 2 channels Sampling rate : 44.1 kHz Frame rate : 38.281 FPS (1152 SPF) Compression mode : Lossy Stream size : 51.0 MiB (99%) Writing library : LAME3.98r Encoding settings : -m j -V 4 -q 3 -lowpass 17 -b 128
⠀⠀⠀⠀⠀⠀