Encora Reprise - View Single Show

CAST:
Barrett Wilbert Weed (Veronica), Dave Thomas Brown (J.D.), Jessica Keenan Wynn (Heather Chandler), Kristolyn Lloyd (Heather Duke), Elle McLemore (Heather McNamara), Jon Eidson (Ram Sweeney), Evan Todd (Kurt Kelly), Michelle Duffy (Ms. Fleming), Anthony Crivello (Ram's Dad), Daniel Cooney (Kurt's Dad), Michelle Duffy (Veronica's Mum), Daniel Cooney (Veronica's Dad), Anthony Crivello (Big Bud Dean), Daniel Cooney (Principal Gowan), Anthony Crivello (Coach Ripper)
NOTES:
Dave Thomas Brrown's debut as JD // Kristolyn Lloyd's NYC debut as Heather Duke
Some copies are missing everything after Lifeboat (tracks 2-11 to 2-23), but the complete audio does exist.
⠀⠀⠀⠀⠀⠀
MediaInfo
General Format : MPEG Audio File size : 979 KiB Duration : 22 s 935 ms Overall bit rate mode : Constant Overall bit rate : 256 kb/s Album : Heathers the Musical 2014 06 09 Album/Performer : Off Broadway Cast Part/Position : 1 Part/Total : 2 Track name : Pre-Show Announcements Track name/Position : 1 Performer : Cast Genre : My Bootlegs Recorded date : 2014 Writing library : LAME3.99r Cover : Yes Cover MIME : image/jpeg Comment : mastered by cursetheflame // Dave Thomas Brown's debut as JD // Kristolyn Lloyd's NYC debut as Heather Duke / mastered by cursetheflame // Dave Thomas Brown's debut as JD // Kristolyn Lloyd's NYC debut as Heather Duke Audio Format : MPEG Audio Format version : Version 1 Format profile : Layer 3 Format settings : Joint stereo / MS Stereo Duration : 22 s 935 ms Bit rate mode : Constant Bit rate : 256 kb/s Channel(s) : 2 channels Sampling rate : 44.1 kHz Frame rate : 38.281 FPS (1152 SPF) Compression mode : Lossy Stream size : 717 KiB (73%) Writing library : LAME3.99r Encoding settings : -m j -V 4 -q 3 -lowpass 19.7 General Format : MPEG Audio File size : 16.5 MiB Duration : 8 min 51 s Overall bit rate mode : Constant Overall bit rate : 256 kb/s Album : Heathers the Musical 2014 06 09 Album/Performer : Off Broadway Cast Part/Position : 1 Part/Total : 2 Track name : Beautiful Track name/Position : 2 Performer : Barrett Wilbert Weed & Cast Genre : My Bootlegs Recorded date : 2014 Writing library : LAME3.99r Cover : Yes Cover MIME : image/jpeg Comment : mastered by cursetheflame // Dave Thomas Brown's debut as JD // Kristolyn Lloyd's NYC debut as Heather Duke / mastered by cursetheflame // Dave Thomas Brown's debut as JD // Kristolyn Lloyd's NYC debut as Heather Duke Audio Format : MPEG Audio Format version : Version 1 Format profile : Layer 3 Format settings : Joint stereo / MS Stereo Duration : 8 min 51 s Bit rate mode : Constant Bit rate : 256 kb/s Channel(s) : 2 channels Sampling rate : 44.1 kHz Frame rate : 38.281 FPS (1152 SPF) Compression mode : Lossy Stream size : 16.2 MiB (98%) Writing library : LAME3.99r Encoding settings : -m j -V 4 -q 3 -lowpass 19.7 General Format : MPEG Audio File size : 4.50 MiB Duration : 2 min 19 s Overall bit rate mode : Constant Overall bit rate : 256 kb/s Album : Heathers the Musical 2014 06 09 Album/Performer : Off Broadway Cast Part/Position : 1 Part/Total : 2 Track name : scene Track name/Position : 3 Performer : Cast Genre : My Bootlegs Recorded date : 2014 Writing library : LAME3.99r Cover : Yes Cover MIME : image/jpeg Comment : mastered by cursetheflame // Dave Thomas Brown's debut as JD // Kristolyn Lloyd's NYC debut as Heather Duke / mastered by cursetheflame // Dave Thomas Brown's debut as JD // Kristolyn Lloyd's NYC debut as Heather Duke Audio Format : MPEG Audio Format version : Version 1 Format profile : Layer 3 Format settings : Joint stereo / MS Stereo Duration : 2 min 19 s Bit rate mode : Constant Bit rate : 256 kb/s Channel(s) : 2 channels Sampling rate : 44.1 kHz Frame rate : 38.281 FPS (1152 SPF) Compression mode : Lossy Stream size : 4.24 MiB (94%) Writing library : LAME3.99r Encoding settings : -m j -V 4 -q 3 -lowpass 19.7 General Format : MPEG Audio File size : 5.61 MiB Duration : 2 min 55 s Overall bit rate mode : Constant Overall bit rate : 256 kb/s Album : Heathers the Musical 2014 06 09 Album/Performer : Off Broadway Cast Part/Position : 1 Part/Total : 2 Track name : Candy Store Track name/Position : 4 Performer : Jessica Keenan Wynn, Kristolyn Lloyd, Elle McLemore Genre : My Bootlegs Recorded date : 2014 Writing library : LAME3.99r Cover : Yes Cover MIME : image/jpeg Comment : mastered by cursetheflame // Dave Thomas Brown's debut as JD // Kristolyn Lloyd's NYC debut as Heather Duke / mastered by cursetheflame // Dave Thomas Brown's debut as JD // Kristolyn Lloyd's NYC debut as Heather Duke Audio Format : MPEG Audio Format version : Version 1 Format profile : Layer 3 Format settings : Joint stereo / MS Stereo Duration : 2 min 55 s Bit rate mode : Constant Bit rate : 256 kb/s Channel(s) : 2 channels Sampling rate : 44.1 kHz Frame rate : 38.281 FPS (1152 SPF) Compression mode : Lossy Stream size : 5.35 MiB (95%) Writing library : LAME3.99r Encoding settings : -m j -V 4 -q 3 -lowpass 19.7 General Format : MPEG Audio File size : 1.75 MiB Duration : 48 s 901 ms Overall bit rate mode : Constant Overall bit rate : 256 kb/s Album : Heathers the Musical 2014 06 09 Album/Performer : Off Broadway Cast Part/Position : 1 Part/Total : 2 Track name : scene Track name/Position : 5 Performer : Cast Genre : My Bootlegs Recorded date : 2014 Writing library : LAME3.99r Cover : Yes Cover MIME : image/jpeg Comment : mastered by cursetheflame // Dave Thomas Brown's debut as JD // Kristolyn Lloyd's NYC debut as Heather Duke / mastered by cursetheflame // Dave Thomas Brown's debut as JD // Kristolyn Lloyd's NYC debut as Heather Duke Audio Format : MPEG Audio Format version : Version 1 Format profile : Layer 3 Format settings : Joint stereo / MS Stereo Duration : 48 s 901 ms Bit rate mode : Constant Bit rate : 256 kb/s Channel(s) : 2 channels Sampling rate : 44.1 kHz Frame rate : 38.281 FPS (1152 SPF) Compression mode : Lossy Stream size : 1.49 MiB (85%) Writing library : LAME3.99r Encoding settings : -m j -V 4 -q 3 -lowpass 19.7 General Format : MPEG Audio File size : 5.45 MiB Duration : 2 min 50 s Overall bit rate mode : Constant Overall bit rate : 256 kb/s Album : Heathers the Musical 2014 06 09 Album/Performer : Off Broadway Cast Part/Position : 1 Part/Total : 2 Track name : Fight For Me Track name/Position : 6 Performer : Barrett Wilbert Weed Genre : My Bootlegs Recorded date : 2014 Writing library : LAME3.99r Cover : Yes Cover MIME : image/jpeg Comment : mastered by cursetheflame // Dave Thomas Brown's debut as JD // Kristolyn Lloyd's NYC debut as Heather Duke / mastered by cursetheflame // Dave Thomas Brown's debut as JD // Kristolyn Lloyd's NYC debut as Heather Duke Audio Format : MPEG Audio Format version : Version 1 Format profile : Layer 3 Format settings : Joint stereo / MS Stereo Duration : 2 min 50 s Bit rate mode : Constant Bit rate : 256 kb/s Channel(s) : 2 channels Sampling rate : 44.1 kHz Frame rate : 38.281 FPS (1152 SPF) Compression mode : Lossy Stream size : 5.20 MiB (95%) Writing library : LAME3.99r Encoding settings : -m j -V 4 -q 3 -lowpass 19.7 General Format : MPEG Audio File size : 3.65 MiB Duration : 1 min 51 s Overall bit rate mode : Constant Overall bit rate : 256 kb/s Album : Heathers the Musical 2014 06 09 Album/Performer : Off Broadway Cast Part/Position : 1 Part/Total : 2 Track name : scene Track name/Position : 7 Performer : Cast Genre : My Bootlegs Recorded date : 2014 Writing library : LAME3.99r Cover : Yes Cover MIME : image/jpeg Comment : mastered by cursetheflame // Dave Thomas Brown's debut as JD // Kristolyn Lloyd's NYC debut as Heather Duke / mastered by cursetheflame // Dave Thomas Brown's debut as JD // Kristolyn Lloyd's NYC debut as Heather Duke Audio Format : MPEG Audio Format version : Version 1 Format profile : Layer 3 Format settings : Joint stereo / MS Stereo Duration : 1 min 51 s Bit rate mode : Constant Bit rate : 256 kb/s Channel(s) : 2 channels Sampling rate : 44.1 kHz Frame rate : 38.281 FPS (1152 SPF) Compression mode : Lossy Stream size : 3.39 MiB (93%) Writing library : LAME3.99r Encoding settings : -m j -V 4 -q 3 -lowpass 19.7 General Format : MPEG Audio File size : 819 KiB Duration : 17 s 789 ms Overall bit rate mode : Constant Overall bit rate : 256 kb/s Album : Heathers the Musical 2014 06 09 Album/Performer : Off Broadway Cast Part/Position : 1 Part/Total : 2 Track name : Candy Store (Reprise) Track name/Position : 8 Performer : Jessica Keenan Wynn, Kristolyn Lloyd, Elle McLemore Genre : My Bootlegs Recorded date : 2014 Writing library : LAME3.99r Cover : Yes Cover MIME : image/jpeg Comment : mastered by cursetheflame // Dave Thomas Brown's debut as JD // Kristolyn Lloyd's NYC debut as Heather Duke / mastered by cursetheflame // Dave Thomas Brown's debut as JD // Kristolyn Lloyd's NYC debut as Heather Duke Audio Format : MPEG Audio Format version : Version 1 Format profile : Layer 3 Format settings : Joint stereo / MS Stereo Duration : 17 s 789 ms Bit rate mode : Constant Bit rate : 256 kb/s Channel(s) : 2 channels Sampling rate : 44.1 kHz Frame rate : 38.281 FPS (1152 SPF) Compression mode : Lossy Stream size : 556 KiB (68%) Writing library : LAME3.99r Encoding settings : -m j -V 4 -q 3 -lowpass 19.7 General Format : MPEG Audio File size : 3.72 MiB Duration : 1 min 53 s Overall bit rate mode : Constant Overall bit rate : 256 kb/s Album : Heathers the Musical 2014 06 09 Album/Performer : Off Broadway Cast Part/Position : 1 Part/Total : 2 Track name : scene Track name/Position : 9 Performer : Cast Genre : My Bootlegs Recorded date : 2014 Writing library : LAME3.99r Cover : Yes Cover MIME : image/jpeg Comment : mastered by cursetheflame // Dave Thomas Brown's debut as JD // Kristolyn Lloyd's NYC debut as Heather Duke / mastered by cursetheflame // Dave Thomas Brown's debut as JD // Kristolyn Lloyd's NYC debut as Heather Duke Audio Format : MPEG Audio Format version : Version 1 Format profile : Layer 3 Format settings : Joint stereo / MS Stereo Duration : 1 min 53 s Bit rate mode : Constant Bit rate : 256 kb/s Channel(s) : 2 channels Sampling rate : 44.1 kHz Frame rate : 38.281 FPS (1152 SPF) Compression mode : Lossy Stream size : 3.47 MiB (93%) Writing library : LAME3.99r Encoding settings : -m j -V 4 -q 3 -lowpass 19.7 General Format : MPEG Audio File size : 6.01 MiB Duration : 3 min 8 s Overall bit rate mode : Constant Overall bit rate : 256 kb/s Album : Heathers the Musical 2014 06 09 Album/Performer : Off Broadway Cast Part/Position : 1 Part/Total : 2 Track name : Freeze Your Brain Track name/Position : 10 Performer : Dave Thomas Brown Genre : My Bootlegs Recorded date : 2014 Writing library : LAME3.99r Cover : Yes Cover MIME : image/jpeg Comment : mastered by cursetheflame // Dave Thomas Brown's debut as JD // Kristolyn Lloyd's NYC debut as Heather Duke / mastered by cursetheflame // Dave Thomas Brown's debut as JD // Kristolyn Lloyd's NYC debut as Heather Duke Audio Format : MPEG Audio Format version : Version 1 Format profile : Layer 3 Format settings : Joint stereo / MS Stereo Duration : 3 min 8 s Bit rate mode : Constant Bit rate : 256 kb/s Channel(s) : 2 channels Sampling rate : 44.1 kHz Frame rate : 38.281 FPS (1152 SPF) Compression mode : Lossy Stream size : 5.75 MiB (96%) Writing library : LAME3.99r Encoding settings : -m j -V 4 -q 3 -lowpass 19.7 General Format : MPEG Audio File size : 2.86 MiB Duration : 1 min 25 s Overall bit rate mode : Constant Overall bit rate : 256 kb/s Album : Heathers the Musical 2014 06 09 Album/Performer : Off Broadway Cast Part/Position : 1 Part/Total : 2 Track name : scene Track name/Position : 11 Performer : Cast Genre : My Bootlegs Recorded date : 2014 Writing library : LAME3.99r Cover : Yes Cover MIME : image/jpeg Comment : mastered by cursetheflame // Dave Thomas Brown's debut as JD // Kristolyn Lloyd's NYC debut as Heather Duke / mastered by cursetheflame // Dave Thomas Brown's debut as JD // Kristolyn Lloyd's NYC debut as Heather Duke Audio Format : MPEG Audio Format version : Version 1 Format profile : Layer 3 Format settings : Joint stereo / MS Stereo Duration : 1 min 25 s Bit rate mode : Constant Bit rate : 256 kb/s Channel(s) : 2 channels Sampling rate : 44.1 kHz Frame rate : 38.281 FPS (1152 SPF) Compression mode : Lossy Stream size : 2.60 MiB (91%) Writing library : LAME3.99r Encoding settings : -m j -V 4 -q 3 -lowpass 19.7 General Format : MPEG Audio File size : 8.25 MiB Duration : 4 min 21 s Overall bit rate mode : Constant Overall bit rate : 256 kb/s Album : Heathers the Musical 2014 06 09 Album/Performer : Off Broadway Cast Part/Position : 1 Part/Total : 2 Track name : Big Fun Track name/Position : 12 Performer : Cast Genre : My Bootlegs Recorded date : 2014 Writing library : LAME3.99r Cover : Yes Cover MIME : image/jpeg Comment : mastered by cursetheflame // Dave Thomas Brown's debut as JD // Kristolyn Lloyd's NYC debut as Heather Duke / mastered by cursetheflame // Dave Thomas Brown's debut as JD // Kristolyn Lloyd's NYC debut as Heather Duke Audio Format : MPEG Audio Format version : Version 1 Format profile : Layer 3 Format settings : Joint stereo / MS Stereo Duration : 4 min 21 s Bit rate mode : Constant Bit rate : 256 kb/s Channel(s) : 2 channels Sampling rate : 44.1 kHz Frame rate : 38.281 FPS (1152 SPF) Compression mode : Lossy Stream size : 7.99 MiB (97%) Writing library : LAME3.99r Encoding settings : -m j -V 4 -q 3 -lowpass 19.7 General Format : MPEG Audio File size : 5.57 MiB Duration : 2 min 54 s Overall bit rate mode : Constant Overall bit rate : 256 kb/s Album : Heathers the Musical 2014 06 09 Album/Performer : Off Broadway Cast Part/Position : 1 Part/Total : 2 Track name : scene Track name/Position : 13 Performer : Cast Genre : My Bootlegs Recorded date : 2014 Writing library : LAME3.99r Cover : Yes Cover MIME : image/jpeg Comment : mastered by cursetheflame // Dave Thomas Brown's debut as JD // Kristolyn Lloyd's NYC debut as Heather Duke / mastered by cursetheflame // Dave Thomas Brown's debut as JD // Kristolyn Lloyd's NYC debut as Heather Duke Audio Format : MPEG Audio Format version : Version 1 Format profile : Layer 3 Format settings : Joint stereo / MS Stereo Duration : 2 min 54 s Bit rate mode : Constant Bit rate : 256 kb/s Channel(s) : 2 channels Sampling rate : 44.1 kHz Frame rate : 38.281 FPS (1152 SPF) Compression mode : Lossy Stream size : 5.31 MiB (95%) Writing library : LAME3.99r Encoding settings : -m j -V 4 -q 3 -lowpass 19.7 General Format : MPEG Audio File size : 6.17 MiB Duration : 3 min 13 s Overall bit rate mode : Constant Overall bit rate : 256 kb/s Album : Heathers the Musical 2014 06 09 Album/Performer : Off Broadway Cast Part/Position : 1 Part/Total : 2 Track name : Dead Girl Walking Track name/Position : 14 Performer : Barrett Wilbert Weed Genre : My Bootlegs Recorded date : 2014 Writing library : LAME3.99r Cover : Yes Cover MIME : image/jpeg Comment : mastered by cursetheflame // Dave Thomas Brown's debut as JD // Kristolyn Lloyd's NYC debut as Heather Duke / mastered by cursetheflame // Dave Thomas Brown's debut as JD // Kristolyn Lloyd's NYC debut as Heather Duke Audio Format : MPEG Audio Format version : Version 1 Format profile : Layer 3 Format settings : Joint stereo / MS Stereo Duration : 3 min 13 s Bit rate mode : Constant Bit rate : 256 kb/s Channel(s) : 2 channels Sampling rate : 44.1 kHz Frame rate : 38.281 FPS (1152 SPF) Compression mode : Lossy Stream size : 5.91 MiB (96%) Writing library : LAME3.99r Encoding settings : -m j -V 4 -q 3 -lowpass 19.7 General Format : MPEG Audio File size : 11.3 MiB Duration : 6 min 0 s Overall bit rate mode : Constant Overall bit rate : 256 kb/s Album : Heathers the Musical 2014 06 09 Album/Performer : Off Broadway Cast Part/Position : 1 Part/Total : 2 Track name : scene Track name/Position : 15 Performer : Cast Genre : My Bootlegs Recorded date : 2014 Writing library : LAME3.99r Cover : Yes Cover MIME : image/jpeg Comment : mastered by cursetheflame // Dave Thomas Brown's debut as JD // Kristolyn Lloyd's NYC debut as Heather Duke / mastered by cursetheflame // Dave Thomas Brown's debut as JD // Kristolyn Lloyd's NYC debut as Heather Duke Audio Format : MPEG Audio Format version : Version 1 Format profile : Layer 3 Format settings : Joint stereo / MS Stereo Duration : 6 min 0 s Bit rate mode : Constant Bit rate : 256 kb/s Channel(s) : 2 channels Sampling rate : 44.1 kHz Frame rate : 38.281 FPS (1152 SPF) Compression mode : Lossy Stream size : 11.0 MiB (98%) Writing library : LAME3.99r Encoding settings : -m j -V 4 -q 3 -lowpass 19.7 General Format : MPEG Audio File size : 12.7 MiB Duration : 6 min 47 s Overall bit rate mode : Constant Overall bit rate : 256 kb/s Album : Heathers the Musical 2014 06 09 Album/Performer : Off Broadway Cast Part/Position : 1 Part/Total : 2 Track name : The Me Inside of Me Track name/Position : 16 Performer : Jessica Keenan Wynn & Cast Genre : My Bootlegs Recorded date : 2014 Writing library : LAME3.99r Cover : Yes Cover MIME : image/jpeg Comment : mastered by cursetheflame // Dave Thomas Brown's debut as JD // Kristolyn Lloyd's NYC debut as Heather Duke / mastered by cursetheflame // Dave Thomas Brown's debut as JD // Kristolyn Lloyd's NYC debut as Heather Duke Audio Format : MPEG Audio Format version : Version 1 Format profile : Layer 3 Format settings : Joint stereo / MS Stereo Duration : 6 min 47 s Bit rate mode : Constant Bit rate : 256 kb/s Channel(s) : 2 channels Sampling rate : 44.1 kHz Frame rate : 38.281 FPS (1152 SPF) Compression mode : Lossy Stream size : 12.4 MiB (98%) Writing library : LAME3.99r Encoding settings : -m j -V 4 -q 3 -lowpass 19.7 General Format : MPEG Audio File size : 8.47 MiB Duration : 4 min 29 s Overall bit rate mode : Constant Overall bit rate : 256 kb/s Album : Heathers the Musical 2014 06 09 Album/Performer : Off Broadway Cast Part/Position : 1 Part/Total : 2 Track name : scene Track name/Position : 17 Performer : Cast Genre : My Bootlegs Recorded date : 2014 Writing library : LAME3.99r Cover : Yes Cover MIME : image/jpeg Comment : mastered by cursetheflame // Dave Thomas Brown's debut as JD // Kristolyn Lloyd's NYC debut as Heather Duke / mastered by cursetheflame // Dave Thomas Brown's debut as JD // Kristolyn Lloyd's NYC debut as Heather Duke Audio Format : MPEG Audio Format version : Version 1 Format profile : Layer 3 Format settings : Joint stereo / MS Stereo Duration : 4 min 29 s Bit rate mode : Constant Bit rate : 256 kb/s Channel(s) : 2 channels Sampling rate : 44.1 kHz Frame rate : 38.281 FPS (1152 SPF) Compression mode : Lossy Stream size : 8.22 MiB (97%) Writing library : LAME3.99r Encoding settings : -m j -V 4 -q 3 -lowpass 19.7 General Format : MPEG Audio File size : 5.33 MiB Duration : 2 min 46 s Overall bit rate mode : Constant Overall bit rate : 256 kb/s Album : Heathers the Musical 2014 06 09 Album/Performer : Off Broadway Cast Part/Position : 1 Part/Total : 2 Track name : Blue Track name/Position : 18 Performer : Jon Eidson, Evan Todd Genre : My Bootlegs Recorded date : 2014 Writing library : LAME3.99r Cover : Yes Cover MIME : image/jpeg Comment : mastered by cursetheflame // Dave Thomas Brown's debut as JD // Kristolyn Lloyd's NYC debut as Heather Duke / mastered by cursetheflame // Dave Thomas Brown's debut as JD // Kristolyn Lloyd's NYC debut as Heather Duke Audio Format : MPEG Audio Format version : Version 1 Format profile : Layer 3 Format settings : Joint stereo / MS Stereo Duration : 2 min 46 s Bit rate mode : Constant Bit rate : 256 kb/s Channel(s) : 2 channels Sampling rate : 44.1 kHz Frame rate : 38.281 FPS (1152 SPF) Compression mode : Lossy Stream size : 5.08 MiB (95%) Writing library : LAME3.99r Encoding settings : -m j -V 4 -q 3 -lowpass 19.7 General Format : MPEG Audio File size : 3.19 MiB Duration : 1 min 35 s Overall bit rate mode : Constant Overall bit rate : 256 kb/s Album : Heathers the Musical 2014 06 09 Album/Performer : Off Broadway Cast Part/Position : 1 Part/Total : 2 Track name : scene Track name/Position : 19 Performer : Cast Genre : My Bootlegs Recorded date : 2014 Writing library : LAME3.99r Cover : Yes Cover MIME : image/jpeg Comment : mastered by cursetheflame // Dave Thomas Brown's debut as JD // Kristolyn Lloyd's NYC debut as Heather Duke / mastered by cursetheflame // Dave Thomas Brown's debut as JD // Kristolyn Lloyd's NYC debut as Heather Duke Audio Format : MPEG Audio Format version : Version 1 Format profile : Layer 3 Format settings : Joint stereo / MS Stereo Duration : 1 min 35 s Bit rate mode : Constant Bit rate : 256 kb/s Channel(s) : 2 channels Sampling rate : 44.1 kHz Frame rate : 38.281 FPS (1152 SPF) Compression mode : Lossy Stream size : 2.93 MiB (92%) Writing library : LAME3.99r Encoding settings : -m j -V 4 -q 3 -lowpass 19.7 General Format : MPEG Audio File size : 3.01 MiB Duration : 1 min 30 s Overall bit rate mode : Constant Overall bit rate : 256 kb/s Album : Heathers the Musical 2014 06 09 Album/Performer : Off Broadway Cast Part/Position : 1 Part/Total : 2 Track name : Blue (Reprise) Track name/Position : 20 Performer : Jon Eidson, Evan Todd, Kristolyn Lloyd Genre : My Bootlegs Recorded date : 2014 Writing library : LAME3.99r Cover : Yes Cover MIME : image/jpeg Comment : mastered by cursetheflame // Dave Thomas Brown's debut as JD // Kristolyn Lloyd's NYC debut as Heather Duke / mastered by cursetheflame // Dave Thomas Brown's debut as JD // Kristolyn Lloyd's NYC debut as Heather Duke Audio Format : MPEG Audio Format version : Version 1 Format profile : Layer 3 Format settings : Joint stereo / MS Stereo Duration : 1 min 30 s Bit rate mode : Constant Bit rate : 256 kb/s Channel(s) : 2 channels Sampling rate : 44.1 kHz Frame rate : 38.281 FPS (1152 SPF) Compression mode : Lossy Stream size : 2.75 MiB (91%) Writing library : LAME3.99r Encoding settings : -m j -V 4 -q 3 -lowpass 19.7 General Format : MPEG Audio File size : 1.01 MiB Duration : 24 s 764 ms Overall bit rate mode : Constant Overall bit rate : 256 kb/s Album : Heathers the Musical 2014 06 09 Album/Performer : Off Broadway Cast Part/Position : 1 Part/Total : 2 Track name : scene Track name/Position : 21 Performer : Cast Genre : My Bootlegs Recorded date : 2014 Writing library : LAME3.99r Cover : Yes Cover MIME : image/jpeg Comment : mastered by cursetheflame // Dave Thomas Brown's debut as JD // Kristolyn Lloyd's NYC debut as Heather Duke / mastered by cursetheflame // Dave Thomas Brown's debut as JD // Kristolyn Lloyd's NYC debut as Heather Duke Audio Format : MPEG Audio Format version : Version 1 Format profile : Layer 3 Format settings : Joint stereo / MS Stereo Duration : 24 s 764 ms Bit rate mode : Constant Bit rate : 256 kb/s Channel(s) : 2 channels Sampling rate : 44.1 kHz Frame rate : 38.281 FPS (1152 SPF) Compression mode : Lossy Stream size : 774 KiB (75%) Writing library : LAME3.99r Encoding settings : -m j -V 4 -q 3 -lowpass 19.7 General Format : MPEG Audio File size : 11.6 MiB Duration : 6 min 12 s Overall bit rate mode : Constant Overall bit rate : 256 kb/s Album : Heathers the Musical 2014 06 09 Album/Performer : Off Broadway Cast Part/Position : 1 Part/Total : 2 Track name : Our Love is God Track name/Position : 22 Performer : Barrett Wilbert Weed, Dave Thomas Brown Genre : My Bootlegs Recorded date : 2014 Writing library : LAME3.99r Cover : Yes Cover MIME : image/jpeg Comment : mastered by cursetheflame // Dave Thomas Brown's debut as JD // Kristolyn Lloyd's NYC debut as Heather Duke / mastered by cursetheflame // Dave Thomas Brown's debut as JD // Kristolyn Lloyd's NYC debut as Heather Duke Audio Format : MPEG Audio Format version : Version 1 Format profile : Layer 3 Format settings : Joint stereo / MS Stereo Duration : 6 min 12 s Bit rate mode : Constant Bit rate : 256 kb/s Channel(s) : 2 channels Sampling rate : 44.1 kHz Frame rate : 38.281 FPS (1152 SPF) Compression mode : Lossy Stream size : 11.4 MiB (98%) Writing library : LAME3.99r Encoding settings : -m j -V 4 -q 3 -lowpass 19.7 General Format : MPEG Audio File size : 1.08 MiB Duration : 27 s 141 ms Overall bit rate mode : Constant Overall bit rate : 256 kb/s Album : Heathers the Musical 2014 06 09 Album/Performer : Off Broadway Cast Part/Position : 2 Part/Total : 2 Track name : Entr'Acte Track name/Position : 1 Performer : Cast Genre : My Bootlegs Recorded date : 2014 Writing library : LAME3.99r Cover : Yes Cover MIME : image/jpeg Comment : mastered by cursetheflame // Dave Thomas Brown's debut as JD // Kristolyn Lloyd's NYC debut as Heather Duke Audio Format : MPEG Audio Format version : Version 1 Format profile : Layer 3 Format settings : Joint stereo / MS Stereo Duration : 27 s 141 ms Bit rate mode : Constant Bit rate : 256 kb/s Channel(s) : 2 channels Sampling rate : 44.1 kHz Frame rate : 38.281 FPS (1152 SPF) Compression mode : Lossy Stream size : 848 KiB (76%) Writing library : LAME3.99r Encoding settings : -m j -V 4 -q 3 -lowpass 19.7 General Format : MPEG Audio File size : 1.34 MiB Duration : 35 s 631 ms Overall bit rate mode : Constant Overall bit rate : 256 kb/s Album : Heathers the Musical 2014 06 09 Album/Performer : Off Broadway Cast Part/Position : 2 Part/Total : 2 Track name : Prom or Hell Track name/Position : 2 Performer : Barrett Wilbert Weed Genre : My Bootlegs Recorded date : 2014 Writing library : LAME3.99r Cover : Yes Cover MIME : image/jpeg Comment : mastered by cursetheflame // Dave Thomas Brown's debut as JD // Kristolyn Lloyd's NYC debut as Heather Duke Audio Format : MPEG Audio Format version : Version 1 Format profile : Layer 3 Format settings : Joint stereo / MS Stereo Duration : 35 s 631 ms Bit rate mode : Constant Bit rate : 256 kb/s Channel(s) : 2 channels Sampling rate : 44.1 kHz Frame rate : 38.281 FPS (1152 SPF) Compression mode : Lossy Stream size : 1.09 MiB (81%) Writing library : LAME3.99r Encoding settings : -m j -V 4 -q 3 -lowpass 19.7 General Format : MPEG Audio File size : 2.31 MiB Duration : 1 min 7 s Overall bit rate mode : Constant Overall bit rate : 256 kb/s Album : Heathers the Musical 2014 06 09 Album/Performer : Off Broadway Cast Part/Position : 2 Part/Total : 2 Track name : scene Track name/Position : 3 Performer : Cast Genre : My Bootlegs Recorded date : 2014 Writing library : LAME3.99r Cover : Yes Cover MIME : image/jpeg Comment : mastered by cursetheflame // Dave Thomas Brown's debut as JD // Kristolyn Lloyd's NYC debut as Heather Duke Audio Format : MPEG Audio Format version : Version 1 Format profile : Layer 3 Format settings : Joint stereo / MS Stereo Duration : 1 min 7 s Bit rate mode : Constant Bit rate : 256 kb/s Channel(s) : 2 channels Sampling rate : 44.1 kHz Frame rate : 38.281 FPS (1152 SPF) Compression mode : Lossy Stream size : 2.06 MiB (89%) Writing library : LAME3.99r Encoding settings : -m j -V 4 -q 3 -lowpass 19.7 General Format : MPEG Audio File size : 7.28 MiB Duration : 3 min 50 s Overall bit rate mode : Constant Overall bit rate : 256 kb/s Album : Heathers the Musical 2014 06 09 Album/Performer : Off Broadway Cast Part/Position : 2 Part/Total : 2 Track name : My Dead Gay Son Track name/Position : 4 Performer : Anthony Crivello & Daniel Cooney Genre : My Bootlegs Recorded date : 2014 Writing library : LAME3.99r Cover : Yes Cover MIME : image/jpeg Comment : mastered by cursetheflame // Dave Thomas Brown's debut as JD // Kristolyn Lloyd's NYC debut as Heather Duke Audio Format : MPEG Audio Format version : Version 1 Format profile : Layer 3 Format settings : Joint stereo / MS Stereo Duration : 3 min 50 s Bit rate mode : Constant Bit rate : 256 kb/s Channel(s) : 2 channels Sampling rate : 44.1 kHz Frame rate : 38.281 FPS (1152 SPF) Compression mode : Lossy Stream size : 7.03 MiB (96%) Writing library : LAME3.99r Encoding settings : -m j -V 4 -q 3 -lowpass 19.7 General Format : MPEG Audio File size : 5.17 MiB Duration : 2 min 40 s Overall bit rate mode : Constant Overall bit rate : 256 kb/s Album : Heathers the Musical 2014 06 09 Album/Performer : Off Broadway Cast Part/Position : 2 Part/Total : 2 Track name : scene Track name/Position : 5 Performer : Cast Genre : My Bootlegs Recorded date : 2014 Writing library : LAME3.99r Cover : Yes Cover MIME : image/jpeg Comment : mastered by cursetheflame // Dave Thomas Brown's debut as JD // Kristolyn Lloyd's NYC debut as Heather Duke Audio Format : MPEG Audio Format version : Version 1 Format profile : Layer 3 Format settings : Joint stereo / MS Stereo Duration : 2 min 40 s Bit rate mode : Constant Bit rate : 256 kb/s Channel(s) : 2 channels Sampling rate : 44.1 kHz Frame rate : 38.281 FPS (1152 SPF) Compression mode : Lossy Stream size : 4.91 MiB (95%) Writing library : LAME3.99r Encoding settings : -m j -V 4 -q 3 -lowpass 19.7 General Format : MPEG Audio File size : 6.50 MiB Duration : 3 min 24 s Overall bit rate mode : Constant Overall bit rate : 256 kb/s Album : Heathers the Musical 2014 06 09 Album/Performer : Off Broadway Cast Part/Position : 2 Part/Total : 2 Track name : Seventeen Track name/Position : 6 Performer : Barrett Wilbert Weed, Dave Thomas Brown Genre : My Bootlegs Recorded date : 2014 Writing library : LAME3.99r Cover : Yes Cover MIME : image/jpeg Comment : mastered by cursetheflame // Dave Thomas Brown's debut as JD // Kristolyn Lloyd's NYC debut as Heather Duke Audio Format : MPEG Audio Format version : Version 1 Format profile : Layer 3 Format settings : Joint stereo / MS Stereo Duration : 3 min 24 s Bit rate mode : Constant Bit rate : 256 kb/s Channel(s) : 2 channels Sampling rate : 44.1 kHz Frame rate : 38.281 FPS (1152 SPF) Compression mode : Lossy Stream size : 6.24 MiB (96%) Writing library : LAME3.99r Encoding settings : -m j -V 4 -q 3 -lowpass 19.7 General Format : MPEG Audio File size : 9.15 MiB Duration : 4 min 51 s Overall bit rate mode : Constant Overall bit rate : 256 kb/s Album : Heathers the Musical 2014 06 09 Album/Performer : Off Broadway Cast Part/Position : 2 Part/Total : 2 Track name : scene Track name/Position : 7 Performer : Cast Genre : My Bootlegs Recorded date : 2014 Writing library : LAME3.99r Cover : Yes Cover MIME : image/jpeg Comment : mastered by cursetheflame // Dave Thomas Brown's debut as JD // Kristolyn Lloyd's NYC debut as Heather Duke Audio Format : MPEG Audio Format version : Version 1 Format profile : Layer 3 Format settings : Joint stereo / MS Stereo Duration : 4 min 51 s Bit rate mode : Constant Bit rate : 256 kb/s Channel(s) : 2 channels Sampling rate : 44.1 kHz Frame rate : 38.281 FPS (1152 SPF) Compression mode : Lossy Stream size : 8.89 MiB (97%) Writing library : LAME3.99r Encoding settings : -m j -V 4 -q 3 -lowpass 19.7 General Format : MPEG Audio File size : 5.14 MiB Duration : 2 min 40 s Overall bit rate mode : Constant Overall bit rate : 256 kb/s Album : Heathers the Musical 2014 06 09 Album/Performer : Off Broadway Cast Part/Position : 2 Part/Total : 2 Track name : Shine a Light Track name/Position : 8 Performer : Michelle Duffy Genre : My Bootlegs Recorded date : 2014 Writing library : LAME3.99r Cover : Yes Cover MIME : image/jpeg Comment : mastered by cursetheflame // Dave Thomas Brown's debut as JD // Kristolyn Lloyd's NYC debut as Heather Duke Audio Format : MPEG Audio Format version : Version 1 Format profile : Layer 3 Format settings : Joint stereo / MS Stereo Duration : 2 min 40 s Bit rate mode : Constant Bit rate : 256 kb/s Channel(s) : 2 channels Sampling rate : 44.1 kHz Frame rate : 38.281 FPS (1152 SPF) Compression mode : Lossy Stream size : 4.89 MiB (95%) Writing library : LAME3.99r Encoding settings : -m j -V 4 -q 3 -lowpass 19.7 General Format : MPEG Audio File size : 2.48 MiB Duration : 1 min 12 s Overall bit rate mode : Constant Overall bit rate : 256 kb/s Album : Heathers the Musical 2014 06 09 Album/Performer : Off Broadway Cast Part/Position : 2 Part/Total : 2 Track name : scene Track name/Position : 9 Performer : Cast Genre : My Bootlegs Recorded date : 2014 Writing library : LAME3.99r Cover : Yes Cover MIME : image/jpeg Comment : mastered by cursetheflame // Dave Thomas Brown's debut as JD // Kristolyn Lloyd's NYC debut as Heather Duke Audio Format : MPEG Audio Format version : Version 1 Format profile : Layer 3 Format settings : Joint stereo / MS Stereo Duration : 1 min 12 s Bit rate mode : Constant Bit rate : 256 kb/s Channel(s) : 2 channels Sampling rate : 44.1 kHz Frame rate : 38.281 FPS (1152 SPF) Compression mode : Lossy Stream size : 2.22 MiB (90%) Writing library : LAME3.99r Encoding settings : -m j -V 4 -q 3 -lowpass 19.7 General Format : MPEG Audio File size : 3.02 MiB Duration : 1 min 30 s Overall bit rate mode : Constant Overall bit rate : 256 kb/s Album : Heathers the Musical 2014 06 09 Album/Performer : Off Broadway Cast Part/Position : 2 Part/Total : 2 Track name : Lifeboat Track name/Position : 10 Performer : Elle McLemore Genre : My Bootlegs Recorded date : 2014 Writing library : LAME3.99r Cover : Yes Cover MIME : image/jpeg Comment : mastered by cursetheflame // Dave Thomas Brown's debut as JD // Kristolyn Lloyd's NYC debut as Heather Duke Audio Format : MPEG Audio Format version : Version 1 Format profile : Layer 3 Format settings : Joint stereo / MS Stereo Duration : 1 min 30 s Bit rate mode : Constant Bit rate : 256 kb/s Channel(s) : 2 channels Sampling rate : 44.1 kHz Frame rate : 38.281 FPS (1152 SPF) Compression mode : Lossy Stream size : 2.76 MiB (92%) Writing library : LAME3.99r Encoding settings : -m j -V 4 -q 3 -lowpass 19.7
⠀⠀⠀⠀⠀⠀