Encora Reprise - View Single Show

Les Misérables - Second Broadway Revival
January 15, 2015 - Unknown

LOCATION: Imperial Theatre
CAST:
Ramin Karimloo (Jean Valjean), Adam Monley (u/s Javert), Caissie Levy (Fantine), Samantha Hill (Cosette), Andy Mientus (Marius), Erin Clemons (u/s Éponine), Wallace Smith (Enjolras), Cliff Saunders (Thénardier), Keala Settle (Madame Thénardier), Tyler Murree (Grantaire)
⠀⠀⠀⠀⠀⠀
MediaInfo
General Format : JPEG File size : 833 KiB Image Format : JPEG Width : 2 250 pixels Height : 3 000 pixels Color space : YUV Chroma subsampling : 4:2:0 Bit depth : 8 bits Compression mode : Lossy Stream size : 833 KiB (100%) General Format : MPEG Audio File size : 37.7 MiB Overall bit rate mode : Variable Audio Format : MPEG Audio Format version : Version 1 Format profile : Layer 3 Bit rate mode : Variable Channel(s) : 1 channel Sampling rate : 44.1 kHz Compression mode : Lossy Stream size : 37.7 MiB (100%) General Format : MPEG Audio File size : 25.8 MiB Overall bit rate mode : Variable Audio Format : MPEG Audio Format version : Version 1 Format profile : Layer 3 Bit rate mode : Variable Channel(s) : 1 channel Sampling rate : 44.1 kHz Compression mode : Lossy Stream size : 25.8 MiB (100%)
⠀⠀⠀⠀⠀⠀