Encora Reprise - View Single Show

Fun Home - Broadway
March 29, 2015 - SunsetBlvd79

LOCATION: Circle in the Square Theatre, NYC
CAST:
Beth Malone (Alison), Emily Skeggs (Medium Alison), Sydney Lucas (Small Alison), Michael Cerveris (Bruce), Judy Kuhn (Helen), Roberta Colindrez (Joan), Oscar Williams (Christian), Joel Perez (Roy), Zell Steele Morrow (John)
NOTES:
Great HD capture of the Broadway Transfer. Performed mostly in the round, the actors are all over the stage. Judy's performances are so layered and beautiful, as is the entire cast! A-
⠀⠀⠀⠀⠀⠀
1 / 4
2 / 4
3 / 4
4 / 4

MediaInfo
General File Name : VTS_01_1.VOB Format : MPEG-PS File size : 1 024 MiB Duration : 15mn 55s Overall bit rate mode : Variable Overall bit rate : 8 994 Kbps Video ID : 224 (0xE0) Format : MPEG Video Format version : Version 2 Format profile : [email protected] Format settings BVOP : Yes Format settings Matrix : Default Format settings GOP : M=3, N=15 Duration : 15mn 55s Bit rate mode : Variable Bit rate : 8 559 Kbps Maximum bit rate : 8 944 Kbps Width : 720 pixels Height : 480 pixels Display aspect ratio : 16:9 Frame rate : 29.970 (30000/1001) fps Standard : NTSC Color space : YUV Chroma subsampling : 4:2:0 Bit depth : 8 bits Scan type : Progressive Compression mode : Lossy Bits Pixel Frame : 0.826 Time code of first frame : 00:00:00:00 Time code source : Group of pictures header GOP Open Closed : Closed Stream size : 974 MiB (95%) Audio ID : 189 (0xBD)-128 (0x80) Format : AC-3 Format Info : Audio Coding 3 Mode extension : CM (complete main) Format settings Endianness : Big Muxing mode : DVD-Video Duration : 15mn 54s Bit rate mode : Constant Bit rate : 256 Kbps Channel s : 2 channels Channel positions : Front: L R Sampling rate : 48.0 KHz Frame rate : 31.250 fps (1536 spf) Compression mode : Lossy Delay relative to video : 33ms Stream size : 29.1 MiB (3%) Menu
⠀⠀⠀⠀⠀⠀