Encora Reprise - View Single Show

Six - Pre-Broadway Tour
May 14, 2019 - Unknown

LOCATION: Chicago
CAST:
Adrianna Hicks (Catherine of Aragon), Andrea Macasaet (Anne Boleyn), Abby Mueller (Jane Seymour), Brittney Mack (Anna of Cleves), Samantha Pauly (Katherine Howard), Anna Uzele (Catherine Parr)
NOTES:
First Preview
⠀⠀⠀⠀⠀⠀
MediaInfo
General Format : MPEG-4 Format profile : Apple audio with iTunes info Codec ID : M4A (M4A /mp42/isom) File size : 8.19 MiB Duration : 5 min 52 s Overall bit rate mode : Variable Overall bit rate : 195 kb/s Album : Six: The Musical (2019.05.14 Chicago) Album/Performer : Six: The Musical Track name : Ex-Wives Track name/Position : 1 Performer : Company Genre : Musicals Encoded date : UTC 2019-05-23 21:19:46 Tagged date : UTC 2019-05-23 21:30:09 Writing application : iTunes 12.9.5.5 Cover : Yes Comment : First Preview Encoding Params : (Binary) Audio ID : 1 Format : AAC LC Format/Info : Advanced Audio Codec Low Complexity Codec ID : mp4a-40-2 Duration : 5 min 52 s Bit rate mode : Variable Bit rate : 128 kb/s Maximum bit rate : 152 kb/s Channel(s) : 1 channel Channel layout : C Sampling rate : 44.1 kHz Frame rate : 43.066 FPS (1024 SPF) Compression mode : Lossy Stream size : 5.52 MiB (67%) Encoded date : UTC 2019-05-23 21:19:46 Tagged date : UTC 2019-05-23 21:30:09 General Format : MPEG-4 Format profile : Apple audio with iTunes info Codec ID : M4A (M4A /mp42/isom) File size : 7.27 MiB Duration : 4 min 53 s Overall bit rate mode : Variable Overall bit rate : 208 kb/s Album : Six: The Musical (2019.05.14 Chicago) Album/Performer : Six: The Musical Track name : Scene: Introducing Catherine of Aragon Track name/Position : 2 Performer : Company Genre : Musicals Encoded date : UTC 2019-05-23 21:20:03 Tagged date : UTC 2019-05-23 21:30:10 Writing application : iTunes 12.9.5.5 Cover : Yes Comment : First Preview Encoding Params : (Binary) Audio ID : 1 Format : AAC LC Format/Info : Advanced Audio Codec Low Complexity Codec ID : mp4a-40-2 Duration : 4 min 53 s Bit rate mode : Variable Bit rate : 128 kb/s Maximum bit rate : 152 kb/s Channel(s) : 1 channel Channel layout : C Sampling rate : 44.1 kHz Frame rate : 43.066 FPS (1024 SPF) Compression mode : Lossy Stream size : 4.60 MiB (63%) Encoded date : UTC 2019-05-23 21:20:03 Tagged date : UTC 2019-05-23 21:30:10 General Format : MPEG-4 Format profile : Apple audio with iTunes info Codec ID : M4A (M4A /mp42/isom) File size : 6.49 MiB Duration : 4 min 4 s Overall bit rate mode : Variable Overall bit rate : 223 kb/s Album : Six: The Musical (2019.05.14 Chicago) Album/Performer : Six: The Musical Track name : No Way Track name/Position : 3 Performer : Adrianna Hicks Genre : Musicals Encoded date : UTC 2019-05-23 21:20:18 Tagged date : UTC 2019-05-23 21:30:10 Writing application : iTunes 12.9.5.5 Cover : Yes Comment : First Preview Encoding Params : (Binary) Audio ID : 1 Format : AAC LC Format/Info : Advanced Audio Codec Low Complexity Codec ID : mp4a-40-2 Duration : 4 min 4 s Bit rate mode : Variable Bit rate : 128 kb/s Maximum bit rate : 146 kb/s Channel(s) : 1 channel Channel layout : C Sampling rate : 44.1 kHz Frame rate : 43.066 FPS (1024 SPF) Compression mode : Lossy Stream size : 3.83 MiB (59%) Encoded date : UTC 2019-05-23 21:20:18 Tagged date : UTC 2019-05-23 21:30:10 General Format : MPEG-4 Format profile : Apple audio with iTunes info Codec ID : M4A (M4A /mp42/isom) File size : 4.17 MiB Duration : 1 min 36 s Overall bit rate mode : Variable Overall bit rate : 365 kb/s Album : Six: The Musical (2019.05.14 Chicago) Album/Performer : Six: The Musical Track name : Scene: Introducing Anne Boleyn Track name/Position : 4 Performer : Company Genre : Musicals Encoded date : UTC 2019-05-23 21:20:32 Tagged date : UTC 2019-05-23 21:30:10 Writing application : iTunes 12.9.5.5 Cover : Yes Comment : First Preview Encoding Params : (Binary) Audio ID : 1 Format : AAC LC Format/Info : Advanced Audio Codec Low Complexity Codec ID : mp4a-40-2 Duration : 1 min 36 s Bit rate mode : Variable Bit rate : 128 kb/s Maximum bit rate : 148 kb/s Channel(s) : 1 channel Channel layout : C Sampling rate : 44.1 kHz Frame rate : 43.066 FPS (1024 SPF) Compression mode : Lossy Stream size : 1.51 MiB (36%) Encoded date : UTC 2019-05-23 21:20:32 Tagged date : UTC 2019-05-23 21:30:10 General Format : MPEG-4 Format profile : Apple audio with iTunes info Codec ID : M4A (M4A /mp42/isom) File size : 6.90 MiB Duration : 4 min 30 s Overall bit rate mode : Variable Overall bit rate : 214 kb/s Album : Six: The Musical (2019.05.14 Chicago) Album/Performer : Six: The Musical Track name : Don't Lose Ur Head Track name/Position : 5 Performer : Andrea Macasaet Genre : Musicals Encoded date : UTC 2019-05-23 21:20:46 Tagged date : UTC 2019-05-23 21:30:10 Writing application : iTunes 12.9.5.5 Cover : Yes Comment : First Preview Encoding Params : (Binary) Audio ID : 1 Format : AAC LC Format/Info : Advanced Audio Codec Low Complexity Codec ID : mp4a-40-2 Duration : 4 min 30 s Bit rate mode : Variable Bit rate : 128 kb/s Maximum bit rate : 147 kb/s Channel(s) : 1 channel Channel layout : C Sampling rate : 44.1 kHz Frame rate : 43.066 FPS (1024 SPF) Compression mode : Lossy Stream size : 4.24 MiB (61%) Encoded date : UTC 2019-05-23 21:20:46 Tagged date : UTC 2019-05-23 21:30:10 General Format : MPEG-4 Format profile : Apple audio with iTunes info Codec ID : M4A (M4A /mp42/isom) File size : 5.46 MiB Duration : 2 min 57 s Overall bit rate mode : Variable Overall bit rate : 259 kb/s Album : Six: The Musical (2019.05.14 Chicago) Album/Performer : Six: The Musical Track name : Scene: Introducing Jane Seymour Track name/Position : 6 Performer : Company Genre : Musicals Encoded date : UTC 2019-05-23 21:21:00 Tagged date : UTC 2019-05-23 21:30:10 Writing application : iTunes 12.9.5.5 Cover : Yes Comment : First Preview Encoding Params : (Binary) Audio ID : 1 Format : AAC LC Format/Info : Advanced Audio Codec Low Complexity Codec ID : mp4a-40-2 Duration : 2 min 57 s Bit rate mode : Variable Bit rate : 128 kb/s Maximum bit rate : 143 kb/s Channel(s) : 1 channel Channel layout : C Sampling rate : 44.1 kHz Frame rate : 43.066 FPS (1024 SPF) Compression mode : Lossy Stream size : 2.80 MiB (51%) Encoded date : UTC 2019-05-23 21:21:00 Tagged date : UTC 2019-05-23 21:30:10 General Format : MPEG-4 Format profile : Apple audio with iTunes info Codec ID : M4A (M4A /mp42/isom) File size : 7.58 MiB Duration : 5 min 14 s Overall bit rate mode : Variable Overall bit rate : 202 kb/s Album : Six: The Musical (2019.05.14 Chicago) Album/Performer : Six: The Musical Track name : Heart of Stone Track name/Position : 7 Performer : Abby Mueller Genre : Musicals Encoded date : UTC 2019-05-23 21:21:14 Tagged date : UTC 2019-05-23 21:30:10 Writing application : iTunes 12.9.5.5 Cover : Yes Comment : First Preview Encoding Params : (Binary) Audio ID : 1 Format : AAC LC Format/Info : Advanced Audio Codec Low Complexity Codec ID : mp4a-40-2 Duration : 5 min 14 s Bit rate mode : Variable Bit rate : 128 kb/s Maximum bit rate : 150 kb/s Channel(s) : 1 channel Channel layout : C Sampling rate : 44.1 kHz Frame rate : 43.066 FPS (1024 SPF) Compression mode : Lossy Stream size : 4.91 MiB (65%) Encoded date : UTC 2019-05-23 21:21:14 Tagged date : UTC 2019-05-23 21:30:10 General Format : MPEG-4 Format profile : Apple audio with iTunes info Codec ID : M4A (M4A /mp42/isom) File size : 3.74 MiB Duration : 1 min 9 s Overall bit rate mode : Variable Overall bit rate : 454 kb/s Album : Six: The Musical (2019.05.14 Chicago) Album/Performer : Six: The Musical Track name : Scene: Introducing Hans Holbein Track name/Position : 8 Performer : Company Genre : Musicals Encoded date : UTC 2019-05-23 21:21:30 Tagged date : UTC 2019-05-23 21:30:10 Writing application : iTunes 12.9.5.5 Cover : Yes Comment : First Preview Encoding Params : (Binary) Audio ID : 1 Format : AAC LC Format/Info : Advanced Audio Codec Low Complexity Codec ID : mp4a-40-2 Duration : 1 min 9 s Bit rate mode : Variable Bit rate : 128 kb/s Maximum bit rate : 138 kb/s Channel(s) : 1 channel Channel layout : C Sampling rate : 44.1 kHz Frame rate : 43.066 FPS (1024 SPF) Compression mode : Lossy Stream size : 1.07 MiB (29%) Encoded date : UTC 2019-05-23 21:21:30 Tagged date : UTC 2019-05-23 21:30:10 General Format : MPEG-4 Format profile : Apple audio with iTunes info Codec ID : M4A (M4A /mp42/isom) File size : 4.75 MiB Duration : 2 min 13 s Overall bit rate mode : Variable Overall bit rate : 300 kb/s Album : Six: The Musical (2019.05.14 Chicago) Album/Performer : Six: The Musical Track name : Haus of Holbein Track name/Position : 9 Performer : Company Genre : Musicals Encoded date : UTC 2019-05-23 21:21:42 Tagged date : UTC 2019-05-23 21:30:10 Writing application : iTunes 12.9.5.5 Cover : Yes Comment : First Preview Encoding Params : (Binary) Audio ID : 1 Format : AAC LC Format/Info : Advanced Audio Codec Low Complexity Codec ID : mp4a-40-2 Duration : 2 min 13 s Bit rate mode : Variable Bit rate : 128 kb/s Maximum bit rate : 147 kb/s Channel(s) : 1 channel Channel layout : C Sampling rate : 44.1 kHz Frame rate : 43.066 FPS (1024 SPF) Compression mode : Lossy Stream size : 2.08 MiB (44%) Encoded date : UTC 2019-05-23 21:21:42 Tagged date : UTC 2019-05-23 21:30:10 General Format : MPEG-4 Format profile : Apple audio with iTunes info Codec ID : M4A (M4A /mp42/isom) File size : 5.56 MiB Duration : 3 min 5 s Overall bit rate mode : Variable Overall bit rate : 252 kb/s Album : Six: The Musical (2019.05.14 Chicago) Album/Performer : Six: The Musical Track name : Scene: Introducing Anne of Cleves Track name/Position : 10 Performer : Company Genre : Musicals Encoded date : UTC 2019-05-23 21:21:57 Tagged date : UTC 2019-05-23 21:30:10 Writing application : iTunes 12.9.5.5 Cover : Yes Comment : First Preview Encoding Params : (Binary) Audio ID : 1 Format : AAC LC Format/Info : Advanced Audio Codec Low Complexity Codec ID : mp4a-40-2 Duration : 3 min 5 s Bit rate mode : Variable Bit rate : 128 kb/s Maximum bit rate : 142 kb/s Channel(s) : 1 channel Channel layout : C Sampling rate : 44.1 kHz Frame rate : 43.066 FPS (1024 SPF) Compression mode : Lossy Stream size : 2.89 MiB (52%) Encoded date : UTC 2019-05-23 21:21:57 Tagged date : UTC 2019-05-23 21:30:10 General Format : MPEG-4 Format profile : Apple audio with iTunes info Codec ID : M4A (M4A /mp42/isom) File size : 6.84 MiB Duration : 4 min 26 s Overall bit rate mode : Variable Overall bit rate : 216 kb/s Album : Six: The Musical (2019.05.14 Chicago) Album/Performer : Six: The Musical Track name : Get Down Track name/Position : 11 Performer : Brittney Mack Genre : Musicals Encoded date : UTC 2019-05-23 21:22:11 Tagged date : UTC 2019-05-23 21:30:10 Writing application : iTunes 12.9.5.5 Cover : Yes Comment : First Preview Encoding Params : (Binary) Audio ID : 1 Format : AAC LC Format/Info : Advanced Audio Codec Low Complexity Codec ID : mp4a-40-2 Duration : 4 min 26 s Bit rate mode : Variable Bit rate : 128 kb/s Maximum bit rate : 149 kb/s Channel(s) : 1 channel Channel layout : C Sampling rate : 44.1 kHz Frame rate : 43.066 FPS (1024 SPF) Compression mode : Lossy Stream size : 4.17 MiB (61%) Encoded date : UTC 2019-05-23 21:22:11 Tagged date : UTC 2019-05-23 21:30:10 General Format : MPEG-4 Format profile : Apple audio with iTunes info Codec ID : M4A (M4A /mp42/isom) File size : 6.41 MiB Duration : 4 min 1 s Overall bit rate mode : Variable Overall bit rate : 223 kb/s Album : Six: The Musical (2019.05.14 Chicago) Album/Performer : Six: The Musical Track name : Scene: Introducing Katherine Howard Track name/Position : 12 Performer : Company Genre : Musicals Encoded date : UTC 2019-05-23 21:22:27 Tagged date : UTC 2019-05-23 21:30:10 Writing application : iTunes 12.9.5.5 Cover : Yes Comment : First Preview Encoding Params : (Binary) Audio ID : 1 Format : AAC LC Format/Info : Advanced Audio Codec Low Complexity Codec ID : mp4a-40-2 Duration : 4 min 1 s Bit rate mode : Variable Bit rate : 128 kb/s Maximum bit rate : 141 kb/s Channel(s) : 1 channel Channel layout : C Sampling rate : 44.1 kHz Frame rate : 43.066 FPS (1024 SPF) Compression mode : Lossy Stream size : 3.74 MiB (58%) Encoded date : UTC 2019-05-23 21:22:27 Tagged date : UTC 2019-05-23 21:30:10 General Format : MPEG-4 Format profile : Apple audio with iTunes info Codec ID : M4A (M4A /mp42/isom) File size : 9.53 MiB Duration : 7 min 18 s Overall bit rate mode : Variable Overall bit rate : 182 kb/s Album : Six: The Musical (2019.05.14 Chicago) Album/Performer : Six: The Musical Track name : All You Wanna Do Track name/Position : 13 Performer : Samantha Pauly Genre : Musicals Encoded date : UTC 2019-05-23 21:22:41 Tagged date : UTC 2019-05-23 21:30:10 Writing application : iTunes 12.9.5.5 Cover : Yes Comment : First Preview Encoding Params : (Binary) Audio ID : 1 Format : AAC LC Format/Info : Advanced Audio Codec Low Complexity Codec ID : mp4a-40-2 Duration : 7 min 18 s Bit rate mode : Variable Bit rate : 128 kb/s Maximum bit rate : 148 kb/s Channel(s) : 1 channel Channel layout : C Sampling rate : 44.1 kHz Frame rate : 43.066 FPS (1024 SPF) Compression mode : Lossy Stream size : 6.86 MiB (72%) Encoded date : UTC 2019-05-23 21:22:41 Tagged date : UTC 2019-05-23 21:30:10 General Format : MPEG-4 Format profile : Apple audio with iTunes info Codec ID : M4A (M4A /mp42/isom) File size : 7.88 MiB Duration : 5 min 32 s Overall bit rate mode : Variable Overall bit rate : 199 kb/s Album : Six: The Musical (2019.05.14 Chicago) Album/Performer : Six: The Musical Track name : Scene: Introducing Catherine Parr Track name/Position : 14 Performer : Company Genre : Musicals Encoded date : UTC 2019-05-23 21:22:59 Tagged date : UTC 2019-05-23 21:30:10 Writing application : iTunes 12.9.5.5 Cover : Yes Comment : First Preview Encoding Params : (Binary) Audio ID : 1 Format : AAC LC Format/Info : Advanced Audio Codec Low Complexity Codec ID : mp4a-40-2 Duration : 5 min 32 s Bit rate mode : Variable Bit rate : 128 kb/s Maximum bit rate : 141 kb/s Channel(s) : 1 channel Channel layout : C Sampling rate : 44.1 kHz Frame rate : 43.066 FPS (1024 SPF) Compression mode : Lossy Stream size : 5.21 MiB (66%) Encoded date : UTC 2019-05-23 21:22:59 Tagged date : UTC 2019-05-23 21:30:10 General Format : MPEG-4 Format profile : Apple audio with iTunes info Codec ID : M4A (M4A /mp42/isom) File size : 6.80 MiB Duration : 4 min 25 s Overall bit rate mode : Variable Overall bit rate : 215 kb/s Album : Six: The Musical (2019.05.14 Chicago) Album/Performer : Six: The Musical Track name : I Don't Need Your Love Track name/Position : 15 Performer : Anna Uzele Genre : Musicals Encoded date : UTC 2019-05-23 21:23:17 Tagged date : UTC 2019-05-23 21:30:10 Writing application : iTunes 12.9.5.5 Cover : Yes Comment : First Preview Encoding Params : (Binary) Audio ID : 1 Format : AAC LC Format/Info : Advanced Audio Codec Low Complexity Codec ID : mp4a-40-2 Duration : 4 min 25 s Bit rate mode : Variable Bit rate : 128 kb/s Maximum bit rate : 150 kb/s Channel(s) : 1 channel Channel layout : C Sampling rate : 44.1 kHz Frame rate : 43.066 FPS (1024 SPF) Compression mode : Lossy Stream size : 4.14 MiB (61%) Encoded date : UTC 2019-05-23 21:23:17 Tagged date : UTC 2019-05-23 21:30:10 General Format : MPEG-4 Format profile : Apple audio with iTunes info Codec ID : M4A (M4A /mp42/isom) File size : 5.54 MiB Duration : 3 min 2 s Overall bit rate mode : Variable Overall bit rate : 255 kb/s Album : Six: The Musical (2019.05.14 Chicago) Album/Performer : Six: The Musical Track name : Scene: Reclaiming Our Stories Track name/Position : 16 Performer : Company Genre : Musicals Encoded date : UTC 2019-05-23 21:23:33 Tagged date : UTC 2019-05-23 21:30:10 Writing application : iTunes 12.9.5.5 Cover : Yes Comment : First Preview Encoding Params : (Binary) Audio ID : 1 Format : AAC LC Format/Info : Advanced Audio Codec Low Complexity Codec ID : mp4a-40-2 Duration : 3 min 2 s Bit rate mode : Variable Bit rate : 128 kb/s Maximum bit rate : 141 kb/s Channel(s) : 1 channel Channel layout : C Sampling rate : 44.1 kHz Frame rate : 43.066 FPS (1024 SPF) Compression mode : Lossy Stream size : 2.87 MiB (52%) Encoded date : UTC 2019-05-23 21:23:33 Tagged date : UTC 2019-05-23 21:30:10 General Format : MPEG-4 Format profile : Apple audio with iTunes info Codec ID : M4A (M4A /mp42/isom) File size : 4.34 MiB Duration : 1 min 47 s Overall bit rate mode : Variable Overall bit rate : 340 kb/s Album : Six: The Musical (2019.05.14 Chicago) Album/Performer : Six: The Musical Track name : I Don't Need Your Love (Remix) Track name/Position : 17 Performer : Anna Uzele and Company Genre : Musicals Encoded date : UTC 2019-05-23 21:23:51 Tagged date : UTC 2019-05-23 21:30:10 Writing application : iTunes 12.9.5.5 Cover : Yes Comment : First Preview Encoding Params : (Binary) Audio ID : 1 Format : AAC LC Format/Info : Advanced Audio Codec Low Complexity Codec ID : mp4a-40-2 Duration : 1 min 47 s Bit rate mode : Variable Bit rate : 128 kb/s Maximum bit rate : 145 kb/s Channel(s) : 1 channel Channel layout : C Sampling rate : 44.1 kHz Frame rate : 43.066 FPS (1024 SPF) Compression mode : Lossy Stream size : 1.67 MiB (39%) Encoded date : UTC 2019-05-23 21:23:51 Tagged date : UTC 2019-05-23 21:30:10 General Format : MPEG-4 Format profile : Apple audio with iTunes info Codec ID : M4A (M4A /mp42/isom) File size : 4.29 MiB Duration : 1 min 44 s Overall bit rate mode : Variable Overall bit rate : 346 kb/s Album : Six: The Musical (2019.05.14 Chicago) Album/Performer : Six: The Musical Track name : Scene: A Royal Happy Ending Track name/Position : 18 Performer : Company Genre : Musicals Encoded date : UTC 2019-05-23 21:24:07 Tagged date : UTC 2019-05-23 21:30:10 Writing application : iTunes 12.9.5.5 Cover : Yes Comment : First Preview Encoding Params : (Binary) Audio ID : 1 Format : AAC LC Format/Info : Advanced Audio Codec Low Complexity Codec ID : mp4a-40-2 Duration : 1 min 44 s Bit rate mode : Variable Bit rate : 128 kb/s Maximum bit rate : 140 kb/s Channel(s) : 1 channel Channel layout : C Sampling rate : 44.1 kHz Frame rate : 43.066 FPS (1024 SPF) Compression mode : Lossy Stream size : 1.62 MiB (38%) Encoded date : UTC 2019-05-23 21:24:07 Tagged date : UTC 2019-05-23 21:30:10 General Format : MPEG-4 Format profile : Apple audio with iTunes info Codec ID : M4A (M4A /mp42/isom) File size : 6.81 MiB Duration : 4 min 25 s Overall bit rate mode : Variable Overall bit rate : 216 kb/s Album : Six: The Musical (2019.05.14 Chicago) Album/Performer : Six: The Musical Track name : Six Track name/Position : 19 Performer : Company Genre : Musicals Encoded date : UTC 2019-05-23 21:24:23 Tagged date : UTC 2019-05-23 21:30:10 Writing application : iTunes 12.9.5.5 Cover : Yes Comment : First Preview Encoding Params : (Binary) Audio ID : 1 Format : AAC LC Format/Info : Advanced Audio Codec Low Complexity Codec ID : mp4a-40-2 Duration : 4 min 25 s Bit rate mode : Variable Bit rate : 128 kb/s Maximum bit rate : 147 kb/s Channel(s) : 1 channel Channel layout : C Sampling rate : 44.1 kHz Frame rate : 43.066 FPS (1024 SPF) Compression mode : Lossy Stream size : 4.14 MiB (61%) Encoded date : UTC 2019-05-23 21:24:23 Tagged date : UTC 2019-05-23 21:30:10
⠀⠀⠀⠀⠀⠀