Encora Reprise - View Single Show

Holiday Inn, The New Irving Berlin Musical - Broadway
January 14, 2017 - Pro-Shot

LOCATION: Studio 54, NYC
CAST:
Bryce Pinkham (Jim Hardy), Lora Lee Gayer (Linda Mason), Corbin Bleu (Ted Hanover), Morgan Gao (Charlie Winslow), Megan Sikora (Lila Dixon), Megan Lawrence (Louise), Lee Wilkof (Danny)
NOTES:
Proshot. Ripped from livestream
⠀⠀⠀⠀⠀⠀
MediaInfo
General Format : MPEG-4 Format profile : Base Media Codec ID : isom (isom/iso2/avc1/mp41) File size : 5.64 GiB Duration : 2 h 2 min Overall bit rate mode : Constant Overall bit rate : 6 603 kb/s Writing application : Lavf57.83.100 Video ID : 1 Format : AVC Format/Info : Advanced Video Codec Format profile : [email protected] Format settings : CABAC / 3 Ref Frames Format settings, CABAC : Yes Format settings, Reference frames : 3 frames Format settings, GOP : M=4, N=60 Codec ID : avc1 Codec ID/Info : Advanced Video Coding Duration : 2 h 2 min Bit rate mode : Constant Bit rate : 6 500 kb/s Width : 1 920 pixels Height : 1 080 pixels Display aspect ratio : 16:9 Frame rate mode : Constant Frame rate : 29.970 (30000/1001) FPS Color space : YUV Chroma subsampling : 4:2:0 Bit depth : 8 bits Scan type : Progressive Bits/(Pixel*Frame) : 0.105 Stream size : 5.55 GiB (98%) Codec configuration box : avcC Audio ID : 2 Format : AAC LC Format/Info : Advanced Audio Codec Low Complexity Codec ID : mp4a-40-2 Duration : 2 h 2 min Bit rate mode : Constant Bit rate : 93.4 kb/s Channel(s) : 2 channels Channel layout : L R Sampling rate : 48.0 kHz Frame rate : 46.875 FPS (1024 SPF) Compression mode : Lossy Stream size : 81.6 MiB (1%) Default : Yes Alternate group : 1
⠀⠀⠀⠀⠀⠀